Вход Регистрация

Интересное

Практическое руководство по Word

О программе
Разделы
Интерфейс
Скачать
Приобретение

Тест-экзаменатор

О программе
Интерфейс
Скачать
Приобретение

Реклама

Нет содержания для этого блока!

Реклама

Пиратство никак не влияет на доходы кинокомпаний
Согласно результатам многолетних исследований, проводимых американским экономистом Колманом Стрампфом, голливудские кинокомпании теряют из-за пиратства не на столько много денег, как пытаются в этом всех убедить.
В Южной Корее игровая зависимость станет болезнью
В Южной Корее рассматривается вопрос о признании зависимости от видеоигр болезнью, наравне с алкоголизмом и наркоманией.

При разбиении файла на определенном треке выходит ошибка. Что делать?

При разбиении файла на определенном треке выходит ошибка. Что делать?
Medieval CUE Splitter

Проверьте, нет ли в cue-файле лишних записей, например в этом блоке лишняя запись INDEX 00 (видно, что время начала не сходится) может привести к ошибке:
 TRACK 02 AUDIO
   TITLE "Not Too Shabby"
   PERFORMER "Cerrone"
   INDEX 01 08:15:19
 TRACK 03 AUDIO
   TITLE "Tattoo Woman"
   PERFORMER "Cerrone"
   INDEX 00 56:34:38
   INDEX 01 13:45:38
 TRACK 04 AUDIO
   TITLE "You Are the One"
   PERFORMER "Cerrone"
   INDEX 01 20:55:00
 TRACK 05 AUDIO
Достаточно открыть файл любым текстовым редактором (например, Блокнотом) и удалить эту строку везде, где она встречается. Чтобы не повредить файл, перед внесением исправлений предварительно сделайте его копию.
[ Назад | Начало | Наверх ]