При разбиении файла на определенном треке выходит ошибка

При разбиении файла на определенном треке выходит ошибка

Medieval CUE Splitter
Проверьте, нет ли в cue-файле лишних записей, например в этом блоке лишняя запись INDEX 00 (видно, что время начала не сходится) может привести к ошибке:
TRACK 02 AUDIO
TITLE «Not Too Shabby»
PERFORMER «Cerrone»
INDEX 01 08:15:19
TRACK 03 AUDIO
TITLE «Tattoo Woman»
PERFORMER «Cerrone»
INDEX 00 56:34:38
INDEX 01 13:45:38
TRACK 04 AUDIO
TITLE «You Are the One»
PERFORMER «Cerrone»
INDEX 01 20:55:00
TRACK 05 AUDIO
Достаточно открыть файл любым текстовым редактором (например, Блокнотом) и удалить эту строку везде, где она встречается. Чтобы не повредить файл, перед внесением исправлений предварительно сделайте его копию.

8048
Нет комментариев. Ваш будет первым!
Загрузка...